Scooby-Doo and Batman the Brave and the Bold 2018 1080p WEB-DL DD...

  • Category Movies
  • Type HD
  • Language English
  • Total size 951.0 MB
  • Uploaded By moviezworldz
  • Downloads 1414
  • Last checked 1 week ago
  • Date uploaded 1 week ago
  • Seeders 97
  • Leechers 20

Scooby-Doo & Batman: the Brave and ...

Animation

The movie involves Batman teaming up with the Scooby Doo gang when villains from both of their worlds unite to wreak havoc on the city. In addition to classic DC villains like the Joker, Catwoman, Harley Quinn, the Riddler, and so forth, alongside heroes like Aquaman, Black Canary, and Plastic Man, the film also has classic Scooby Doo villains in it, like the Ghost Clown, the Space Kook, and the Miner 49er.

Infohash : B9A73522C0FDF4AF808924B147A41D9742B02B22




General
Format : Matroska
Format version : Version 4 / Version 2
File size : 951 MiB
Duration : 1 h 15 min
Overall bit rate : 1 769 kb/s

Video
ID : 1
Format : AVC
Format/Info : Advanced Video Codec
Format profile : [email protected]
Format settings : CABAC / 4 Ref Frames
Format settings, CABAC : Yes
Format settings, ReFrames : 4 frames
Codec ID : V_MPEG4/ISO/AVC
Duration : 1 h 15 min
Bit rate : 1 500 kb/s
Width : 1 912 pixels
Height : 1 072 pixels
Display aspect ratio : 16:9
Frame rate mode : Constant
Frame rate : 23.976 (24000/1001) FPS
Color space : YUV
Chroma subsampling : 4:2:0
Bit depth : 8 bits
Scan type : Progressive
Bits/(Pixel*Frame) : 0.031
Stream size : 812 MiB (85%)
Writing library : x264 core 148 r2708 86b7198
Default : Yes
Forced : No

Audio
ID : 2
Format : AC-3
Format/Info : Audio Coding 3
Codec ID : A_AC3
Duration : 1 h 15 min
Bit rate mode : Constant
Bit rate : 256 kb/s
Channel(s) : 6 channels
Channel positions : Front: L C R, Side: L R, LFE
Sampling rate : 48.0 kHz
Frame rate : 31.250 FPS (1536 SPF)
Bit depth : 16 bits
Compression mode : Lossy
Stream size : 138 MiB (14%)
Language : English
Service kind : Complete Main
Default : Yes
Forced : No












Files:

Scooby-Doo and Batman the Brave and the Bold 2018 1080p WEB-DL DD 5.1 x264
  • Scooby-Doo and Batman the Brave and the Bold 2018 1080p WEB-DL DD 5.1 x264.mkv (951.0 MB)

There are currently no comments. Feel free to leave one :)

Code:

  • udp://tracker.coppersurfer.tk:6969/announce
  • udp://tracker.cyberia.is:6969/announce
  • udp://inferno.demonoid.pw:3391/announce
  • udp://open.stealth.si:80/announce
  • udp://tracker.pirateparty.gr:6969/announce
  • udp://peerfect.org:6969/announce
  • udp://p4p.arenabg.com:1337/announce
  • udp://p4p.arenabg.ch:1337/announce
  • udp://tracker.leechers-paradise.org:6969/announce
  • udp://ipv4.tracker.harry.lu:80/announce
  • udp://shadowshq.yi.org:6969/announce
  • udp://tracker.vanitycore.co:6969/announce
  • udp://tracker.opentrackr.org:1337/announce
  • udp://explodie.org:6969/announce
  • udp://tracker.zer0day.to:1337/announce
  • udp://tracker.leechers-paradise.org:6969/announce
  • udp://coppersurfer.tk:6969/announce