Space Pirate Captain Harlock 2013 dubbed BRRip 720p x264 AAC - pr...

  • Category Movies
  • Type HD
  • Language English
  • Total size 1.5 GB
  • Uploaded By primate
  • Downloads 85
  • Last checked 1 day ago
  • Date uploaded 3 years ago
  • Seeders 0
  • Leechers 0

Space Pirate Captain Harlock

AnimationScience Fiction

Space Pirate Captain Harlock and his fearless crew face off against the space invaders who seek to conquer the planet Earth.

Infohash : FF5244667309591CF56544329B2C719F2EF7D0CB




http://www.imdb.com/title/tt2668134/


Space Pirate Captain Harlock and his fearless crew face off against the space invaders who seek to conquer the planet Earth.


Director :Shinji Aramaki
Writers :Leiji Matsumoto (manga), Harutoshi Fukui (screenplay),


General
Complete name : Space Pirate Captain Harlock 2013 dubbed BRRip 720p x264 AAC - primate.mp4
Format : MPEG-4
Format profile : Base Media / Version 2
Codec ID : mp42
File size : 1.50 GiB
Duration : 1h 51mn
Overall bit rate mode : Variable
Overall bit rate : 1928 Kbps
Source : DUBBED.720p.BluRay.x264-PFa [PublicHD]- Thanx
Subtitles : None

Video
ID : 1
Format : AVC
Format/Info : Advanced Video Codec
Format profile : [email protected]
Format settings, CABAC : Yes
Format settings, ReFrames : 4 frames
Codec ID : avc1
Codec ID/Info : Advanced Video Coding
Duration : 1h 51mn
Bit rate : 1 475 Kbps
Width : 1 280 pixels
Height : 528 pixels
Display aspect ratio : 2.40:1
Frame rate mode : Variable
Frame rate : 23.976 fps
Minimum frame rate : 23.974 fps
Maximum frame rate : 23.981 fps
Color space : YUV
Chroma subsampling : 4:2:0
Bit depth : 8 bits
Scan type : Progressive
Bits/(Pixel*Frame) : 0.091
Stream size : 1.15 GiB (76%)

Audio #1
ID : 2
Format : AAC
Format/Info : Advanced Audio Codec
Format profile : LC
Codec ID : 40
Duration : 1h 51mn
Bit rate mode : Variable
Bit rate : 319 Kbps
Maximum bit rate : 513 Kbps
Channel(s) : 6 channels
Channel positions : Front: L C R, Side: L R, LFE
Sampling rate : 48.0 KHz
Compression mode : Lossy
Stream size : 254 MiB (17%)
Language : English

Audio #2
ID : 3
Format : AAC
Format/Info : Advanced Audio Codec
Format profile : LC
Codec ID : 40
Duration : 1h 51mn
Bit rate mode : Variable
Bit rate : 128 Kbps
Maximum bit rate : 251 Kbps
Channel(s) : 2 channels
Channel positions : Front: L R
Sampling rate : 48.0 KHz
Compression mode : Lossy
Stream size : 102 MiB (7%)
Language : English





FF5244667309591CF56544329B2C719F2EF7D0CB


udp://open.demonii.com:1337/announce

udp://tracker.1337x.org:80/announce

udp://ipv4.tracker.harry.lu:80/announce

http://announce.torrentsmd.com:8080/announce

udp://10.rarbg.me:80/announce

udp://tracker.prq.to:6969/announce

udp://10.rarbg.com/announce

udp://tracker.openbittorrent.com:80/announce

udp://10.rarbg.me/announce

udp://tracker.publicbt.com:80/announce

udp://tracker.yify-torrents.com/announce



Files:

  • Space Pirate Captain Harlock 2013 dubbed BRRip 720p x264 AAC - primate.mp4 (1.5 GB)
  • _preview.mp4 (14.0 MB)
  • poster.jpg (484.1 KB)
  • Downmixing.jpg (211.6 KB)
  • Space Pirate Captain Harlock 2013 dubbed BRRip 720p x264 AAC - primate.mp4.txt (6.8 KB)
  • Torrent downloaded from Silvertorrent.org.txt (0.1 KB)
  • Torrent downloaded from AhaShare.com.txt (0.1 KB)

There are currently no comments. Feel free to leave one :)

Code:

  • udp://open.demonii.com:1337/announce
  • udp://tracker.1337x.org:80/announce
  • udp://ipv4.tracker.harry.lu:80/announce
  • http://announce.torrentsmd.com:8080/announce
  • udp://10.rarbg.me:80/announce
  • udp://tracker.prq.to:6969/announce
  • udp://10.rarbg.com/announce
  • udp://tracker.openbittorrent.com:80/announce
  • udp://10.rarbg.me/announce
  • udp://tracker.publicbt.com:80/announce
  • udp://tracker.yify-torrents.com/announce