Pleasure or Pain (2014) NL Subs MPEG-4-HE AAC-LC x264-NLU002

  • Category Movies
  • Type Mp4
  • Language English
  • Total size 953.4 MB
  • Uploaded By NLUPPER002
  • Downloads 786
  • Last checked 1 day ago
  • Date uploaded 3 years ago
  • Seeders 0
  • Leechers 0

Infohash : 2BA9B56724077CF5F3DD80F5E690FC7591BAFFF6

Pleasure or Pain (2014) NL Subs MPEG-4-HE AAC-LC x264-NLU002
.
Dutch DVD Release Date 01-2014
Release Info: http://www.bol.com/nl/p/pleasure-or-pain/9200000022773099/
.

.
Drama | Erotische Thriller - 5 September 2013 (South Korea)
.
http://www.imdb.com/title/tt2091327
.
PLOT
.
A wealthy real estate developer takes a young woman from an everyday mundane life and shows her a world of decadence and debauchery that pushes her sexual limits to the brink.
.
Source: Retail DVD5
Format: MP4
Video: 720x576
Audio: English
Retail Subtitles: Yellow Dutch. Hardcoded
Menu: Yes
NL Notes: 16+ Zeer Erotische Triller zou ik zeggen.
.
Enjoy MP4 DVDRip by NLU002
.
General
Complete name : Pleasure or Pain (2014) NL Subs MPEG-4-HE AAC-LC x264-NLU002.mp4
Format : MPEG-4
Format profile : Base Media / Version 2
Codec ID : mp42
File size : 953 MiB
Duration : 1h 38mn
Overall bit rate mode : Variable
Overall bit rate : 1 354 Kbps
Movie name : Pleasure or Pain (2014) NL Subs DVDRip-NLU002
Writing application : TMPGEnc Video Mastering Works 5 Version. 5.4.2.103
Comment : Enjoy encode from NLU002

Video
ID : 2
Format : AVC
Format/Info : Advanced Video Codec
Format profile : [email protected]
Format settings, CABAC : Yes
Format settings, ReFrames : 5 frames
Codec ID : avc1
Codec ID/Info : Advanced Video Coding
Duration : 1h 38mn
Bit rate mode : Variable
Bit rate : 1 154 Kbps
Width : 720 pixels
Height : 576 pixels
Display aspect ratio : 16:9
Frame rate mode : Constant
Frame rate : 25.000 fps
Standard : NTSC
Color space : YUV
Chroma subsampling : 4:2:0
Bit depth : 8 bits
Scan type : Progressive
Bits/(Pixel*Frame) : 0.111
Stream size : 800 MiB (84%)
Writing library : x264 core 136
Encoding settings : cabac=1 / ref=5 / deblock=1:0:0 / analyse=0x3:0x113 / me=hex / subme=7 / psy=1 / psy_rd=1.00:0.00 / mixed_ref=1 / me_range=16 / chroma_me=1 / trellis=1 / 8x8dct=1 / cqm=2 / deadzone=21,11 / fast_pskip=1 / chroma_qp_offset=-4 / threads=12 / lookahead_threads=2 / sliced_threads=0 / slices=1 / nr=0 / decimate=1 / interlaced=fake / bluray_compat=0 / constrained_intra=0 / bframes=3 / b_pyramid=0 / b_adapt=1 / b_bias=0 / direct=1 / weightb=1 / open_gop=0 / weightp=1 / keyint=250 / keyint_min=25 / scenecut=40 / intra_refresh=0 / rc_lookahead=40 / rc=2pass / mbtree=1 / bitrate=1153 / ratetol=1.0 / qcomp=0.60 / qpmin=5 / qpmax=69 / qpstep=4 / cplxblur=20.0 / qblur=0.5 / vbv_maxrate=1153 / vbv_bufsize=1153 / nal_hrd=vbr / ip_ratio=1.40 / aq=1:1.00
Color primaries : BT.601 NTSC
Transfer characteristics : BT.601
Matrix coefficients : BT.601

Audio
ID : 1
Format : AAC
Format/Info : Advanced Audio Codec
Format profile : HE-AAC / LC
Codec ID : 40
Duration : 1h 38mn
Bit rate mode : Variable
Bit rate : 215 Kbps
Maximum bit rate : 432 Kbps
Channel(s) : 2 channels
Channel(s)_Original : 3 channels
Channel positions : Front: L R, Side: C
Sampling rate : 48.0 KHz / 24.0 KHz
Compression mode : Lossy
Stream size : 151 MiB (16%)

Files:

Pleasure or Pain (2014) NL Subs MPEG-4-HE AAC-LC x264-NLU002
  • Pleasure or Pain (2014) NL Subs MPEG-4-HE AAC-LC x264-NLU002.mp4 (953.4 MB)
  • Pleasure or Pain (2014) NL Subs MPEG-4-HE AAC-LC x264-NLU002.nfo (4.5 KB)
  • Torrent downloaded from AanMeHoelaJa torrents at BTScene.org.txt (0.1 KB)
  • Torrent downloaded from AhaShare.com.txt (0.1 KB)
  • Torrent downloaded from demonoid.ph.txt (0.0 KB)
  • Torrent Downloaded From ExtraTorrent.cc.txt (0.3 KB)
  • Torrent_Downloaded_from_1337x.org.txt (0.2 KB)
  • Torrent_Downloaded_from_kickass.to.txt (0.5 KB)
  • Torrent_Downloaded_from_thepiratebay.se.txt (0.2 KB)

There are currently no comments. Feel free to leave one :)

Code:

  • http://inferno.demonoid.ph:3389/announce
  • udp://open.demonii.com:1337/announce
  • http://tracker.coppersurfer.tk:6969/announce
  • http://tracker.ex.ua:80/announce
  • http://94.228.192.98/announce
  • udp://pow7.com:80/announce
  • udp://bt.rghost.net:80/announce
  • udp://tracker.token.ro:80/announce
  • udp://tracker.publicbt.com:80/announce
  • udp://tracker.zond.org:80/announce
  • udp://tracker.openbittorrent.com:80/announce
  • udp://11.rarbg.me:80/announce
  • udp://tracker.coppersurfer.tk:6969/announce
  • udp://exodus.desync.com:6969/announce
  • http://bigfoot1942.sektori.org:6969/announce